Tubelight 2017 720p Esub DVD Hindi GOPISAHI

  • Category Movies
  • Type Bollywood
  • Language Hindi
  • Total size 916.2 MB
  • Uploaded By PENDUDESI
  • Downloads 734
  • Last checked 25 minutes ago
  • Date uploaded 6 days ago
  • Seeders 53
  • Leechers 9

Tubelight

DramaWar

Laxman Singh Bisht (Salman) is nicknamed tube light by his neighbours because he is feeble-minded. Despite being special, Laxman lives by one life-lesson; keep your faith alive and you can do almost anything, even stop a war.

Infohash : CA52D2BF23AC86DFE37A1319CC9B409D9FE3C740


Format                         : Matroska
Format version                 : Version 4 / Version 2
File size                      : 916 MiB
Duration                       : 2 h 16 min
Overall bit rate               : 941 kb/s
Movie name                     : Tubelight 2017 GOPISAHI

Video
Format                         : AVC
Codec ID                       : V_MPEG4/ISO/AVC
Duration                       : 2 h 16 min
Bit rate                       : 850 kb/s
Width                          : 1 280 pixels
Height                         : 544 pixels
Display aspect ratio           : 2.35:1
Frame rate mode                : Constant
Frame rate                     : 23.976 (24000/1001) FPS
Stream size                    : 828 MiB (90%)
Writing library                : x264 core 152 r2851 ba24899

Audio
Format                         : AAC
Duration                       : 2 h 16 min
Bit rate                       : 88.7 kb/s
Channel(s)                     : 6 channels
Channel positions              : Front: L C R, Side: L R, LFE
Sampling rate                  : 44.1 kHz
Frame rate                     : 43.066 FPS (1024 SPF)
Stream size                    : 86.4 MiB (9%)
Language                       : Hindi


Text\
Language                       : English


Files:

  • Tubelight 2017 720p Esub DVD Hindi GOPISAHI.mkv (916.2 MB)

There are currently no comments. Feel free to leave one :)

Code:

  • http://ipv4.tracker.harry.lu/announce
  • http://ipv4.tracker.harry.lu:80/announce
  • http://163.172.180.68:80/announce
  • http://t.nyaatracker.com/announce
  • http://tracker.devil-torrents.pl:80/announce
  • http://tracker.devil-torrents.pl/announce
  • http://open.kickasstracker.com/announce
  • http://163.172.180.68/announce
  • http://t.nyaatracker.com:80/announce
  • http://retracker.mgts.by:80/announce
  • http://45.33.11.224/announce
  • http://tracker.torrentyorg.pl:80/announce
  • http://pt.lax.mx:80/announce
  • udp://tracker.coppersurfer.tk:6969/announce
  • udp://tracker.pirateparty.gr:6969/announce