Mickey's Once Upon A Christmas 1999 [1080p WEB-DL 10Bit x265 HEVC...

  • Category Movies
  • Type HEVC/x265
  • Language English
  • Total size 1.2 GB
  • Uploaded By koyumu
  • Downloads 1198
  • Last checked 58 minutes ago
  • Date uploaded 3 weeks ago
  • Seeders 2
  • Leechers 1

Mickey's Once Upon a Christmas

AnimationComedyHolidayFamily

Disney's biggest stars shine in a magical, heartwarming movie sure to become a holiday classic! Mickey, Minnie, and their famous friends Goofy, Donald, Daisy, and Pluto gather to reminisce about love, magic, and surprises in three wonder-filled stories of Christmas past. In the fine tradition of Disney's superb storytelling, Minnie and Mickey recall the year they both gave up what was most important to them for the sake of the other, making for one unforgettable Christmas. Goofy and Max retell when they experienced a series of hilarious but season-shaking events ... until a visit from the real Santa made it a most magical holiday. Thinking back to when they wished Christmas was every day, Donald's nephews Huey, Dewey, and Louie remember their dream turning into a comical catastrophe, eventually teaching them what true holiday spirit is all about.

Infohash : 8038DD1820194F2D9C3C81F55E8BA78F484099A5





Code:

General
Format                                   : Matroska
Format version                           : Version 4 / Version 2
File size                                : 1.24 GiB
Duration                                 : 1 h 5 min
Overall bit rate                         : 2 696 kb/s
Movie name                               : Mickey's Once Upon a Christmas (1999) [TPX]
Encoded date                             : UTC 2017-11-04T22:18:59Z
Writing application                      : HandBrake 20170922215441-2123622-master 2017092301
Writing library                          : Lavf57.7.2

Video
ID                                       : 1
Format                                   : HEVC
Format/Info                              : High Efficiency Video Coding
Format profile                           : Main [email protected]@Main
Codec ID                                 : V_MPEGH/ISO/HEVC
Duration                                 : 1 h 5 min
Bit rate                                 : 2 259 kb/s
Width                                    : 1 920 pixels
Height                                   : 1 080 pixels
Display aspect ratio                     : 16:9
Original display aspect ratio            : 16:9
Frame rate mode                          : Constant
Frame rate                               : 23.976 (24000/1001) FPS
Color space                              : YUV
Chroma subsampling                       : 4:2:0
Bit depth                                : 10 bits
Bits/(Pixel*Frame)                       : 0.045
Stream size                              : 1.04 GiB (84%)
Writing library                          : x265 2.3:[Windows][GCC 5.3.1][64 bit] 10bit
Encoding settings                        : cpuid=1173503 / frame-threads=3 / numa-pools=8 / wpp / no-pmode / no-pme / no-psnr / no-ssim / log-level=2 / input-csp=1 / input-res=1920x1080 / interlace=0 / total-frames=0 / level-idc=0 / high-tier=1 / uhd-bd=0 / ref=3 / no-allow-non-conformance / no-repeat-headers / annexb / no-aud / no-hrd / info / hash=0 / no-temporal-layers / open-gop / min-keyint=24 / keyint=240 / bframes=4 / b-adapt=2 / b-pyramid / bframe-bias=0 / rc-lookahead=20 / lookahead-slices=6 / scenecut=40 / no-intra-refresh / ctu=64 / min-cu-size=8 / no-rect / no-amp / max-tu-size=32 / tu-inter-depth=1 / tu-intra-depth=1 / limit-tu=0 / rdoq-level=0 / dynamic-rd=0.00 / signhide / no-tskip / nr-intra=0 / nr-inter=0 / no-constrained-intra / strong-intra-smoothing / max-merge=2 / limit-refs=3 / no-limit-modes / me=1 / subme=2 / merange=57 / temporal-mvp / weightp / no-weightb / no-analyze-src-pics / deblock=0:0 / sao / no-sao-non-deblock / rd=3 / no-early-skip / rskip / no-fast-intra / no-tskip-fast / no-cu-lossless / no-b-intra / rdpenalty=0 / psy-rd=2.00 / psy-rdoq=0.00 / no-rd-refine / analysis-mode=0 / no-lossless / cbqpoffs=0 / crqpoffs=0 / rc=crf / crf=21.0 / qcomp=0.60 / qpstep=4 / stats-write=0 / stats-read=0 / ipratio=1.40 / pbratio=1.30 / aq-mode=1 / aq-strength=1.00 / cutree / zone-count=0 / no-strict-cbr / qg-size=32 / no-rc-grain / qpmax=69 / qpmin=0 / sar=255 / sar-width / : / sar-height=360:359 / overscan=0 / videoformat=5 / range=0 / colorprim=1 / transfer=1 / colormatrix=1 / chromaloc=0 / display-window=0 / max-cll=0,0 / min-luma=0 / max-luma=1023 / log2-max-poc-lsb=8 / vui-timing-info / vui-hrd-info / slices=1 / opt-qp-pps / opt-ref-list-length-pps / no-multi-pass-opt-rps / scenecut-bias=0.05 / no-opt-cu-delta-qp / no-aq-motion / no-hdr
Default                                  : Yes
Forced                                   : No
Color range                              : Limited
Color primaries                          : BT.709
Transfer characteristics                 : BT.709
Matrix coefficients                      : BT.709

Audio
ID                                       : 2
Format                                   : AC-3
Format/Info                              : Audio Coding 3
Codec ID                                 : A_AC3
Duration                                 : 1 h 5 min
Bit rate mode                            : Constant
Bit rate                                 : 384 kb/s
Channel(s)                               : 6 channels
Channel positions                        : Front: L C R, Side: L R, LFE
Sampling rate                            : 48.0 kHz
Frame rate                               : 31.250 FPS (1536 SPF)
Bit depth                                : 16 bits
Compression mode                         : Lossy
Stream size                              : 181 MiB (14%)
Title                                    : Surround
Language                                 : English
Service kind                             : Complete Main
Default                                  : Yes
Forced                                   : No

Menu
00:00:00.000                             : :1. Main Title/"The Moment's Arrived!"
00:00:58.016                             : :2. DONALD DUCK: STUCK ON CHRISTMAS: It's Christmas!
00:05:36.002                             : :3. A Wish Upon A Star
00:09:08.006                             : :4. Deja Vu Again And Again
00:11:06.082                             : :5. Livening Things Up
00:13:10.081                             : :6. The True Joy Of Christmas
00:18:56.010                             : :7. A VERY GOOFY CHRISTMAS: A Letter To Santa
00:23:22.026                             : :8. Is There a Santa Claus?
00:29:09.122                             : :9. A Time To Share
00:32:08.093                             : :10. "Ya Just Gotta Believe"
00:36:57.090                             : :11. Yes Maxie, There Is A Santa Claus
00:41:02.085                             : :12. MICKEY AND MINNIE'S GIFT OF THE MAGI: The Perfect Gift
00:44:32.086                             : :13. Down At Crazy Pete's
00:48:32.076                             : :14. Meanwhile, at Mortimer's...
00:50:43.082                             : :15. The Charity Toy Drive
00:56:28.051                             : :16. Gifts Of The Heart
00:58:17.077                             : :17. Here We Come A-Caroling
01:00:12.109                             : :18. End Credits/"Deck The Halls" as performed by SHeDAISY


Files:

  • Mickeys.Once.Upon.a.Christmas.1999.1080p.WEB-DL.x265.10bit.AC3.5.1-FRANKeNCODE.mkv (1.2 GB)

There are currently no comments. Feel free to leave one :)

Code:

  • udp://tracker.leechers-paradise.org:6969/announce